[ オンエアリストに戻る ]
TITLE "Heavy Metal Syndicate #969"
FILE "2009-09-06.mp3" WAVE
  TRACK 01 AUDIO
    TITLE "THE FINAL COUNTDOWN (Live 2008)"
    PERFORMER "EUROPE : Almost Unplugged"
    INDEX 01 00:00:00

  TRACK 02 AUDIO
    TITLE "IT'S FOR YOU - MARS (Live 2009)"
    PERFORMER "MR. BIG : Back to Budokan"
    INDEX 01 13:42:56

  TRACK 03 AUDIO
    TITLE "MEGASLOWFADE"
    PERFORMER "LILLIAN AXE : Sad Day on Planet Earth"
    INDEX 01 19:42:09

  TRACK 04 AUDIO
    TITLE "Reissue: MADALAINE (Live at the BBC)"
    PERFORMER "WINGER : Winger (2009 reissue)"
    INDEX 01 24:49:26

  TRACK 05 AUDIO
    TITLE "WALK IN THE SHADOWS"
    PERFORMER "ARCH ENEMY : The Root of All Evil"
    INDEX 01 31:20:33

  TRACK 06 AUDIO
    TITLE "CROWN OF THORNS"
    PERFORMER "TENET : Sovereign"
    INDEX 01 36:04:67

  TRACK 07 AUDIO
    TITLE "Classic rock: WALK IN THE SHADOWS"
    PERFORMER "QUEENSRYCHE : Rage for Order (Digitally remastered)"
    INDEX 01 52:24:16


SEO [PR] おまとめローン 冷え性対策 坂本龍馬 動画掲示板 レンタルサーバー SEO