[ オンエアリストに戻る ]
TITLE "Heavy Metal Syndicate #968"
FILE "2009-08-30.mp3" WAVE
  TRACK 01 AUDIO
    TITLE "WE WEREN'T BORN TO FOLLOW (single edit)"
    PERFORMER "BON JOVI : The Circle"
    INDEX 01 00:00:00

  TRACK 02 AUDIO
    TITLE "LAST LOOK AT EDEN"
    PERFORMER "EUROPE : Last Look at Eden"
    INDEX 01 16:20:03

  TRACK 03 AUDIO
    TITLE "WINGS OF TOMORROW"
    PERFORMER "ARCH ENEMY : The Root of All Evil"
    INDEX 01 21:45:50

  TRACK 04 AUDIO
    TITLE "FLAG IN THE GROUND"
    PERFORMER "SONATA ARCTICA : The Days of Grays"
    INDEX 01 26:46:31

  TRACK 05 AUDIO
    TITLE "SO WHAT IF YOU GO"
    PERFORMER "ADELITAS WAY : Adelitas Way"
    INDEX 01 32:40:51

  TRACK 06 AUDIO
    TITLE "Introduction: THE 59TH STREET BRIDGE SONG (FEELIN' GROOVY)"
    PERFORMER "SIMON & GARFUNKEL : Parsley, Sage, Rosemary and Thyme (Digitally remastered)"
    INDEX 01 43:54:57

  TRACK 07 AUDIO
    TITLE "Classic rock: THE 59TH STREET BRIDGE SONG (FEELIN' GROOVY) (Live 1968)"
    PERFORMER "MIKE BLOOMFIELD & AL KOOPER : The Live Adventures of Mike Bloomfield and Al Kooper"
    INDEX 01 50:11:62


SEO [PR] おまとめローン 冷え性対策 坂本龍馬 動画掲示板 レンタルサーバー SEO