[ オンエアリストに戻る ]
TITLE "Heavy Metal Syndicate #967"
FILE "2009-08-23.mp3" WAVE
  TRACK 01 AUDIO
    TITLE "SHIFT THE NIGHT AWAY"
    PERFORMER "ANDRE MATOS : Mentalize"
    INDEX 01 00:00:00

  TRACK 02 AUDIO
    TITLE "Reissue: YOUTH GONE WILD (Live 1989)"
    PERFORMER "SKID ROW : Skid Row (2009 reissue)"
    INDEX 01 11:51:35

  TRACK 03 AUDIO
    TITLE "Reissue: DELIVERING THE GOODS (Live 1992)"
    PERFORMER "SKID ROW : Slave to the Grind (2009 reissue) (feat. Rob Halford)"
    INDEX 01 16:13:40

  TRACK 04 AUDIO
    TITLE "INVINCIBLE"
    PERFORMER "ADELITAS WAY : Adelitas Way"
    INDEX 01 23:41:36

  TRACK 05 AUDIO
    TITLE "JACK THE LAD"
    PERFORMER "FIREBIRD : Grand Union"
    INDEX 01 27:33:69

  TRACK 06 AUDIO
    TITLE "BALLROOM BLITZ (Live 2008)"
    PERFORMER "SWEET : Live! in America"
    INDEX 01 34:16:35

  TRACK 07 AUDIO
    TITLE "Classic rock: IT'S FOR YOU"
    PERFORMER "THREE DOG NIGHT : Three Dog Night (Digitally remastered)"
    INDEX 01 54:33:21


SEO [PR] おまとめローン 冷え性対策 坂本龍馬 動画掲示板 レンタルサーバー SEO