[ オンエアリストに戻る ]
TITLE "Heavy Metal Syndicate #966"
FILE "2009-08-16.mp3" WAVE
  TRACK 01 AUDIO
    TITLE "HELL IS FOR CHILDREN"
    PERFORMER "CHILDREN OF BODOM : Skeletons in the Closet"
    INDEX 01 00:00:00

  TRACK 02 AUDIO
    TITLE "HATE WORLDWIDE"
    PERFORMER "SLAYER : World Painted Blood"
    INDEX 01 09:58:20

  TRACK 03 AUDIO
    TITLE "JUODAAN VIINAA / 酒でも飲むか !!"
    PERFORMER "KORPIKLAANI : Karkelo / コルピの酒盛り"
    INDEX 01 14:19:72

  TRACK 04 AUDIO
    TITLE "POWERSTREAM"
    PERFORMER "ANDRE MATOS : Mentalize"
    INDEX 01 19:44:46

  TRACK 05 AUDIO
    TITLE "CATCH UP TO ME"
    PERFORMER "RICHIE KOTZEN : Peace Sign"
    INDEX 01 24:22:43

  TRACK 06 AUDIO
    TITLE "Reissue: BACK FOR THE ATTACK"
    PERFORMER "DOKKEN : Back for the Attack (2009 reissue)"
    INDEX 01 31:16:47

  TRACK 07 AUDIO
    TITLE "Classic rock: HELL IS FOR CHILDREN"
    PERFORMER "PAT BENATAR : Crimes of Passion"
    INDEX 01 51:06:19


SEO [PR] おまとめローン 冷え性対策 坂本龍馬 動画掲示板 レンタルサーバー SEO