[ オンエアリストに戻る ]
TITLE "Heavy Metal Syndicate #965"
FILE "2009-08-09.mp3" WAVE
  TRACK 01 AUDIO
    TITLE "BRING US PINTS OF BEER / ビールの王将"
    PERFORMER "KORPIKLAANI : Karkelo / コルピの酒盛り"
    INDEX 01 00:00:00

  TRACK 02 AUDIO
    TITLE "EYE OF THE STORM"
    PERFORMER "WARMEN : Japanese Hospitality (feat. Timo Kotipelto)"
    INDEX 01 10:08:00

  TRACK 03 AUDIO
    TITLE "QUIET RIOT"
    PERFORMER "DEVIN TOWNSEND PROJECT : Ki"
    INDEX 01 14:53:69

  TRACK 04 AUDIO
    TITLE "WORRIED MIND"
    PERFORMER "FIREBIRD : Grand Union"
    INDEX 01 20:26:41

  TRACK 05 AUDIO
    TITLE "THE INCIDENT (XI. OCTANE TWISTED)"
    PERFORMER "PORCUPINE TREE : The Incident"
    INDEX 01 23:24:30

  TRACK 06 AUDIO
    TITLE "DEFILING MORALITY OV BLACK GOD"
    PERFORMER "BEHEMOTH : Evangelion"
    INDEX 01 31:05:73

  TRACK 07 AUDIO
    TITLE "Classic rock: CLAP (Studio version)"
    PERFORMER "YES : The Yes Album (Digitally remastered, 2009)"
    INDEX 01 52:16:21


SEO [PR] おまとめローン 冷え性対策 坂本龍馬 動画掲示板 レンタルサーバー SEO