[ オンエアリストに戻る ]
TITLE "Heavy Metal Syndicate #964"
FILE "2009-08-02.mp3" WAVE
  TRACK 01 AUDIO
    TITLE "LOOKIN' OUT MY BACKDOOR"
    PERFORMER "CHILDREN OF BODOM : Skeletons in the Closet"
    INDEX 01 00:00:00

  TRACK 02 AUDIO
    TITLE "VODKA / ウォッカで乾杯 !!"
    PERFORMER "KORPIKLAANI : Karkelo / コルピの酒盛り"
    INDEX 01 09:44:20

  TRACK 03 AUDIO
    TITLE "UNSPOKEN WORDS"
    PERFORMER "GOTTHARD : Need to Believe"
    INDEX 01 13:08:47

  TRACK 04 AUDIO
    TITLE "MY MESSIAH"
    PERFORMER "RICHIE KOTZEN : Peace Sign"
    INDEX 01 19:31:12

  TRACK 05 AUDIO
    TITLE "GOD LIKES YOUR STYLE"
    PERFORMER "NEGATIVE : God Likes Your Style"
    INDEX 01 23:35:09

  TRACK 06 AUDIO
    TITLE "BLUE FLAME"
    PERFORMER "FIREBIRD : Grand Union"
    INDEX 01 30:25:57

  TRACK 07 AUDIO
    TITLE "Classic rock: KINGDOM OF THE NIGHT (Live 1991)"
    PERFORMER "AXXIS : Access All Areas - Live"
    INDEX 01 49:25:18


SEO [PR] おまとめローン 冷え性対策 坂本龍馬 動画掲示板 レンタルサーバー SEO