[ オンエアリストに戻る ]
TITLE "Heavy Metal Syndicate #963"
FILE "2009-07-26.mp3" WAVE
  TRACK 01 AUDIO
    TITLE "TURN OUT THE LIGHTS"
    PERFORMER "STEEL PANTHER : Feel the Steel (feat. M. Shadows)"
    INDEX 01 00:00:00

  TRACK 02 AUDIO
    TITLE "LOST IN AMERICA"
    PERFORMER "NEGATIVE : God Likes Your Style"
    INDEX 01 21:02:00

  TRACK 03 AUDIO
    TITLE "MADMAN"
    PERFORMER "MOONSTONE PROJECT : Rebel on the Run"
    INDEX 01 27:43:56

  TRACK 04 AUDIO
    TITLE "RUNAWAY DREAMS (Live 2009)"
    PERFORMER "PAT McMANUS : Live... And in Time"
    INDEX 01 34:30:29

  TRACK 05 AUDIO
    TITLE "Classic rock: I SOLD MY SOUL TO ROCK'N'ROLL"
    PERFORMER "BULLET : No Mercy"
    INDEX 01 53:12:37


SEO [PR] おまとめローン 冷え性対策 坂本龍馬 動画掲示板 レンタルサーバー SEO