[ オンエアリストに戻る ]
TITLE "Heavy Metal Syndicate #962"
FILE "2009-07-19.mp3" WAVE
  TRACK 01 AUDIO
    TITLE "PSYCHOPATHY RED"
    PERFORMER "SLAYER : World Painted Blood"
    INDEX 01 00:00:00

  TRACK 02 AUDIO
    TITLE "MY QUEEN OF WINTER"
    PERFORMER "CAIN'S OFFERING : Gather the Faithful"
    INDEX 01 12:33:43

  TRACK 03 AUDIO
    TITLE "OVER THE WALL (Live 1987)"
    PERFORMER "TESTAMENT : Live at Eindhoven '87"
    INDEX 01 20:37:46

  TRACK 04 AUDIO
    TITLE "THICKER THAN BLOOD (Live 2007)"
    PERFORMER "DEATH ANGEL : Live @ Rock Hard Festival 2007 / Sonic German Beatdown - Live in Germany"
    INDEX 01 25:03:31

  TRACK 05 AUDIO
    TITLE "SMILE"
    PERFORMER "CHEAP TRICK : The Latest"
    INDEX 01 31:30:63

  TRACK 06 AUDIO
    TITLE "Classic rock: INTUITION"
    PERFORMER "TNT : Intuition (Digitally remastered)"
    INDEX 01 52:12:30


SEO [PR] おまとめローン 冷え性対策 坂本龍馬 動画掲示板 レンタルサーバー SEO