[ オンエアリストに戻る ]
TITLE "Heavy Metal Syndicate #961"
FILE "2009-07-12.mp3" WAVE
  TRACK 01 AUDIO
    TITLE "THRESHOLD OF A DREAM"
    PERFORMER "PRAYING MANTIS : Sanctuary"
    INDEX 01 00:00:00

  TRACK 02 AUDIO
    TITLE "DAWN OF SOLACE"
    PERFORMER "CAIN'S OFFERING : Gather the Faithful"
    INDEX 01 11:10:38

  TRACK 03 AUDIO
    TITLE "DEAD ANGEL"
    PERFORMER "CANDLEMASS : Death Magic Doom"
    INDEX 01 18:46:12

  TRACK 04 AUDIO
    TITLE "FAT GIRL (THAR SHE BLOWS)"
    PERFORMER "STEEL PANTHER : Feel the Steel"
    INDEX 01 26:51:40

  TRACK 05 AUDIO
    TITLE "GONE TOMORROW"
    PERFORMER "ARKAEA : Years in the Darkness"
    INDEX 01 33:38:66

  TRACK 06 AUDIO
    TITLE "Classic rock: THEME FOR AN IMAGINARY WESTERN (Live 1969)"
    PERFORMER "MOUNTAIN : Woodstock 40"
    INDEX 01 51:14:16


SEO [PR] おまとめローン 冷え性対策 坂本龍馬 動画掲示板 レンタルサーバー SEO