[ オンエアリストに戻る ]
TITLE "Heavy Metal Syndicate #960"
FILE "2009-07-05.mp3" WAVE
  TRACK 01 AUDIO
    TITLE "PAINKILLER (Live 2005)"
    PERFORMER "JUDAS PRIEST : A Touch of Evil - Live"
    INDEX 01 00:00:00

  TRACK 02 AUDIO
    TITLE "SEX N' SATAN"
    PERFORMER "AMORAL : Show Your Colors"
    INDEX 01 14:23:25

  TRACK 03 AUDIO
    TITLE "IF I EVER DIE"
    PERFORMER "CANDLEMASS : Death Magic Doom"
    INDEX 01 19:59:64

  TRACK 04 AUDIO
    TITLE "CALIFORNIA GIRL"
    PERFORMER "CHEAP TRICK : The Latest"
    INDEX 01 26:18:72

  TRACK 05 AUDIO
    TITLE "BLOCK ROCKIN"
    PERFORMER "STEVIE SALAS COLORCODE : Set It on Blast!! (feat. Tak Matsumoto)"
    INDEX 01 32:59:55

  TRACK 06 AUDIO
    TITLE "Classic rock: ASSAULT ATTACK"
    PERFORMER "MICHAEL SCHENKER GROUP : Assault Attack (Digitally remastered)"
    INDEX 01 51:42:50


SEO [PR] おまとめローン 冷え性対策 坂本龍馬 動画掲示板 レンタルサーバー SEO