[ オンエアリストに戻る ]
TITLE "Heavy Metal Syndicate #959"
FILE "2009-06-28.mp3" WAVE
  TRACK 01 AUDIO
    TITLE "SO HIGH"
    PERFORMER "PRAYING MANTIS : Sanctuary"
    INDEX 01 00:00:00

  TRACK 02 AUDIO
    TITLE "RIDING ON THE WIND (Live 2005)"
    PERFORMER "JUDAS PRIEST : A Touch of Evil - Live"
    INDEX 01 16:33:57

  TRACK 03 AUDIO
    TITLE "WHEN THE LIGHTS ARE OUT"
    PERFORMER "CHEAP TRICK : The Latest"
    INDEX 01 23:14:72

  TRACK 04 AUDIO
    TITLE "WASH IT ALL AWAY"
    PERFORMER "ROYAL BLISS : Life In-Between"
    INDEX 01 27:43:22

  TRACK 05 AUDIO
    TITLE "YEAR OF THE SUCKERPUNCH"
    PERFORMER "AMORAL : Show Your Colors"
    INDEX 01 35:02:47

  TRACK 06 AUDIO
    TITLE "Classic rock: ALONE AGAIN"
    PERFORMER "DOKKEN : Tooth and Nail (Digitally remastered)"
    INDEX 01 50:14:18


SEO [PR] おまとめローン 冷え性対策 坂本龍馬 動画掲示板 レンタルサーバー SEO