[ オンエアリストに戻る ]
TITLE "Heavy Metal Syndicate #958"
FILE "2009-06-21.mp3" WAVE
  TRACK 01 AUDIO
    TITLE "JUDAS RISING (Live 2005)"
    PERFORMER "JUDAS PRIEST : A Touch of Evil - Live"
    INDEX 01 00:00:00

  TRACK 02 AUDIO
    TITLE "HELL'S ON FIRE"
    PERFORMER "STEEL PANTHER : Feel the Steel"
    INDEX 01 11:54:41

  TRACK 03 AUDIO
    TITLE "WALKING ON SMILES"
    PERFORMER "FAIR WARNING : Aura"
    INDEX 01 15:32:28

  TRACK 04 AUDIO
    TITLE "WHISKEY"
    PERFORMER "ROYAL BLISS : Life In-Between"
    INDEX 01 20:46:03

  TRACK 05 AUDIO
    TITLE "I FOUND LOVE"
    PERFORMER "SUNSTORM : House of Dreams"
    INDEX 01 24:30:44

  TRACK 06 AUDIO
    TITLE "BLACK OCEAN"
    PERFORMER "ARKAEA : Years in the Darkness"
    INDEX 01 30:19:42

  TRACK 07 AUDIO
    TITLE "Classic rock: COLOUR MY WORLD"
    PERFORMER "CHICAGO : Chicago II (Digitally remastered)"
    INDEX 01 53:35:69


SEO [PR] おまとめローン 冷え性対策 坂本龍馬 動画掲示板 レンタルサーバー SEO