[ オンエアリストに戻る ]
TITLE "Heavy Metal Syndicate #957"
FILE "2009-06-14.mp3" WAVE
  TRACK 01 AUDIO
    TITLE "IN TIME"
    PERFORMER "PRAYING MANTIS : Sanctuary"
    INDEX 01 00:00:00

  TRACK 02 AUDIO
    TITLE "HERE THEY COME"
    PERFORMER "ROYAL BLISS : Life In-Between"
    INDEX 01 13:01:64

  TRACK 03 AUDIO
    TITLE "RUNNIN' OUT"
    PERFORMER "CHICKENFOOT : Chickenfoot"
    INDEX 01 17:28:48

  TRACK 04 AUDIO
    TITLE "BAPTIZED BY THE BLOOD OF ANGELS"
    PERFORMER "ETERNAL TEARS OF SORROW : Children of the Dark Waters"
    INDEX 01 23:37:71

  TRACK 05 AUDIO
    TITLE "YEARS IN THE DARKNESS"
    PERFORMER "ARKAEA : Years in the Darkness"
    INDEX 01 29:56:47

  TRACK 06 AUDIO
    TITLE "Classic rock: METAL HEART"
    PERFORMER "ACCEPT : Metal Heart (Digitally remastered)"
    INDEX 01 51:13:27


SEO [PR] おまとめローン 冷え性対策 坂本龍馬 動画掲示板 レンタルサーバー SEO