[ オンエアリストに戻る ]
TITLE "Heavy Metal Syndicate #956"
FILE "2009-06-07.mp3" WAVE
  TRACK 01 AUDIO
    TITLE "SEXY LITTLE THING"
    PERFORMER "CHICKENFOOT : Chickenfoot"
    INDEX 01 00:00:00

  TRACK 02 AUDIO
    TITLE "TOUCH THE RAINBOW"
    PERFORMER "PRAYING MANTIS : Sanctuary"
    INDEX 01 13:17:23

  TRACK 03 AUDIO
    TITLE "PARTY ALL DAY (FUCK ALL NIGHT)"
    PERFORMER "STEEL PANTHER : Feel the Steel (feat. Justin Hawkins)"
    INDEX 01 20:28:13

  TRACK 04 AUDIO
    TITLE "FALLING"
    PERFORMER "FAIR WARNING : Aura"
    INDEX 01 25:25:11

  TRACK 05 AUDIO
    TITLE "ARES"
    PERFORMER "DIRTFEDD : The American Nightmare"
    INDEX 01 32:00:48

  TRACK 06 AUDIO
    TITLE "Classic rock: SINCE I'VE BEEN LOVING YOU"
    PERFORMER "LED ZEPPELIN : Led Zeppelin III (Digitally remastered)"
    INDEX 01 46:24:70


SEO [PR] おまとめローン 冷え性対策 坂本龍馬 動画掲示板 レンタルサーバー SEO