[ オンエアリストに戻る ]
TITLE "Heavy Metal Syndicate #955"
FILE "2009-05-31.mp3" WAVE
  TRACK 01 AUDIO
    TITLE "THE COVER UP"
    PERFORMER "TIM RIPPER OWENS : Play My Game"
    INDEX 01 00:00:00

  TRACK 02 AUDIO
    TITLE "DON'T COUNT ON ME"
    PERFORMER "FAIR WARNING : Aura"
    INDEX 01 19:22:59

  TRACK 03 AUDIO
    TITLE "COTOPAXI"
    PERFORMER "MARS VOLTA : Octahedron"
    INDEX 01 25:19:06

  TRACK 04 AUDIO
    TITLE "NEW DIVIDE"
    PERFORMER "LINKIN PARK : Transformers - Revenge of the Fallen - The Album (Soundtrack)"
    INDEX 01 32:12:30

  TRACK 05 AUDIO
    TITLE "Classic rock: LET THERE BE ROCK"
    PERFORMER "AC/DC : Let There Be Rock (Digitally remastered)"
    INDEX 01 49:47:04


SEO [PR] おまとめローン 冷え性対策 坂本龍馬 動画掲示板 レンタルサーバー SEO