[ オンエアリストに戻る ]
TITLE "Heavy Metal Syndicate #954"
FILE "2009-05-24.mp3" WAVE
  TRACK 01 AUDIO
    TITLE "FEAR OF THE DARK (Live 2008)"
    PERFORMER "IRON MAIDEN : Flight 666 - The Original Soundtrack"
    INDEX 01 00:00:00

  TRACK 02 AUDIO
    TITLE "FIGHTING FOR YOUR LOVE"
    PERFORMER "FAIR WARNING : Aura"
    INDEX 01 12:34:66

  TRACK 03 AUDIO
    TITLE "HEY GIRL"
    PERFORMER "FAIR WARNING : Aura"
    INDEX 01 17:05:64

  TRACK 04 AUDIO
    TITLE "NIGHT AFTER NIGHT"
    PERFORMER "PRIMAL FEAR : 16.6 (Before the Devil Knows You're Dead)"
    INDEX 01 25:08:69

  TRACK 05 AUDIO
    TITLE "...SAID THE SPIDER TO THE FLY"
    PERFORMER "DIRTFEDD : The American Nightmare"
    INDEX 01 32:28:38

  TRACK 06 AUDIO
    TITLE "Classic rock: DO ANYTHING YOU WANT TO"
    PERFORMER "THIN LIZZY : Black Rose - A Rock Legend (Digitally remastered)"
    INDEX 01 51:31:33


SEO [PR] おまとめローン 冷え性対策 坂本龍馬 動画掲示板 レンタルサーバー SEO