[ オンエアリストに戻る ]
TITLE "Heavy Metal Syndicate #953"
FILE "2009-05-17.mp3" WAVE
  TRACK 01 AUDIO
    TITLE "HERE COMES THE HEARTACHE"
    PERFORMER "FAIR WARNING : Aura"
    INDEX 01 00:00:00

  TRACK 02 AUDIO
    TITLE "CHURCHILL'S SPEECH / ACES HIGH (Live 2008)"
    PERFORMER "IRON MAIDEN : Flight 666 - The Original Soundtrack"
    INDEX 01 10:08:62

  TRACK 03 AUDIO
    TITLE "RIDING THE EAGLE"
    PERFORMER "PRIMAL FEAR : 16.6 (Before the Devil Knows You're Dead)"
    INDEX 01 19:38:33

  TRACK 04 AUDIO
    TITLE "FROM THE CAVE"
    PERFORMER "VOIVOD : Infini"
    INDEX 01 24:47:66

  TRACK 05 AUDIO
    TITLE "ARMA-GODDAMN-MOTHERFUCKIN-GEDDON"
    PERFORMER "MARILYN MANSON : The High End of Low"
    INDEX 01 30:06:01

  TRACK 06 AUDIO
    TITLE "Classic rock: ALWAYS LOOK ON THE BRIGHT SIDE OF LIFE"
    PERFORMER "MONTY PYTHON : Monty Python Sings"
    INDEX 01 51:56:40


SEO [PR] おまとめローン 冷え性対策 坂本龍馬 動画掲示板 レンタルサーバー SEO