[ オンエアリストに戻る ]
TITLE "Heavy Metal Syndicate #952 - LAメタル特集"
FILE "2009-05-10.mp3" WAVE
  TRACK 01 AUDIO
    TITLE "Classic rock: STICK TO YOUR GUNS"
    PERFORMER "MOTLEY CRUE : Stick to Your Guns (single)"
    INDEX 01 00:00:00

  TRACK 02 AUDIO
    TITLE "Classic rock: HOLD ON TO 18"
    PERFORMER "BLACK 'N BLUE : Black 'n Blue"
    INDEX 01 12:00:19

  TRACK 03 AUDIO
    TITLE "Classic rock: ANIMAL (FUCK LIKE A BEAST)"
    PERFORMER "W.A.S.P. : Animal (Fuck Like a Beast) (single)"
    INDEX 01 18:01:10

  TRACK 04 AUDIO
    TITLE "Classic rock: MARCH OF THE SAINT"
    PERFORMER "ARMORED SAINT : March of the Saint"
    INDEX 01 23:23:40

  TRACK 05 AUDIO
    TITLE "Classic rock: READY TO STRIKE"
    PERFORMER "KING KOBRA : Ready to Strike"
    INDEX 01 28:47:56

  TRACK 06 AUDIO
    TITLE "Classic rock: HURRICANE"
    PERFORMER "HURRICANE : Take What You Want (MiniAlbum)"
    INDEX 01 36:21:49

  TRACK 07 AUDIO
    TITLE "Classic rock: NOTORIOUS"
    PERFORMER "LIZZY BORDEN : Menace to Society"
    INDEX 01 40:53:00

  TRACK 08 AUDIO
    TITLE "Classic rock: YOU THINK YOU'RE TOUGH"
    PERFORMER "RATT : Ratt (EP)"
    INDEX 01 51:12:60


SEO [PR] おまとめローン 冷え性対策 坂本龍馬 動画掲示板 レンタルサーバー SEO