[ オンエアリストに戻る ]
TITLE "Heavy Metal Syndicate #951"
FILE "2009-05-03.mp3" WAVE
  TRACK 01 AUDIO
    TITLE "RUN TO THE HILLS (Live 2008)"
    PERFORMER "IRON MAIDEN : Flight 666 - The Original Soundtrack"
    INDEX 01 00:00:00

  TRACK 02 AUDIO
    TITLE "IT'S OVER"
    PERFORMER "GRIMMSTINE : Grimmstine"
    INDEX 01 10:57:61

  TRACK 03 AUDIO
    TITLE "WHEN MOUNTAINS FALL"
    PERFORMER "STRATOVARIUS : Polaris"
    INDEX 01 16:39:22

  TRACK 04 AUDIO
    TITLE "THE SHOCKER"
    PERFORMER "STEEL PANTHER : Feel the Steel"
    INDEX 01 22:48:63

  TRACK 05 AUDIO
    TITLE "IS IT ENOUGH"
    PERFORMER "GREAT WHITE : Rising"
    INDEX 01 27:14:34

  TRACK 06 AUDIO
    TITLE "PARANOID"
    PERFORMER "AVENGED SEVENFOLD : Covered, A Revolution in Sound: Warner Bros. Records (Compilation)"
    INDEX 01 33:32:26

  TRACK 07 AUDIO
    TITLE "Classic rock: EPITAPH including MARCH FOR NO REASON"
    PERFORMER "KING CRIMSON : In the Court of the Crimson King (Digitally remastered)"
    INDEX 01 52:04:18


SEO [PR] おまとめローン 冷え性対策 坂本龍馬 動画掲示板 レンタルサーバー SEO