[ オンエアリストに戻る ]
TITLE "Heavy Metal Syndicate #950"
FILE "2009-04-26.mp3" WAVE
  TRACK 01 AUDIO
    TITLE "ASIAN HOOKER"
    PERFORMER "STEEL PANTHER : Feel the Steel (feat. Corey Taylor & Scott Ian)"
    INDEX 01 00:00:00

  TRACK 02 AUDIO
    TITLE "Reissue: GREEN-TINTED SIXTIES MIND (Early version)"
    PERFORMER "MR. BIG : Lean into It (2009 reissue)"
    INDEX 01 16:07:49

  TRACK 03 AUDIO
    TITLE "Reissue: TO BE WITH YOU (Reggae version)"
    PERFORMER "MR. BIG : Lean into It (2009 reissue)"
    INDEX 01 19:47:32

  TRACK 04 AUDIO
    TITLE "HELL DRIVER"
    PERFORMER "UFO : The Visitor"
    INDEX 01 22:51:32

  TRACK 05 AUDIO
    TITLE "BEG FOR IT"
    PERFORMER "HARDCORE SUPERSTAR : Beg for It"
    INDEX 01 27:05:64

  TRACK 06 AUDIO
    TITLE "I WON'T TELL YOU"
    PERFORMER "LACUNA COIL : Shallow Life"
    INDEX 01 32:07:52

  TRACK 07 AUDIO
    TITLE "Classic rock: NO MATTER WHAT"
    PERFORMER "BADFINGER : No Dice"
    INDEX 01 53:05:22


SEO [PR] おまとめローン 冷え性対策 坂本龍馬 動画掲示板 レンタルサーバー SEO