[ オンエアリストに戻る ]
TITLE "Heavy Metal Syndicate #949"
FILE "2009-04-19.mp3" WAVE
  TRACK 01 AUDIO
    TITLE "DEATH TO ALL BUT METAL"
    PERFORMER "STEEL PANTHER : Feel the Steel (feat. Corey Taylor)"
    INDEX 01 00:00:00

  TRACK 02 AUDIO
    TITLE "DEEP UNKNOWN"
    PERFORMER "STRATOVARIUS : Polaris"
    INDEX 01 11:58:69

  TRACK 03 AUDIO
    TITLE "KIND OF A GIRL"
    PERFORMER "TINTED WINDOWS : Tinted Windows"
    INDEX 01 20:15:44

  TRACK 04 AUDIO
    TITLE "DANGER ZONE"
    PERFORMER "GREAT WHITE : Rising"
    INDEX 01 24:34:13

  TRACK 05 AUDIO
    TITLE "DEMON EYES (Live at the Club Quattro in Shibuya, April 8, 2009)"
    PERFORMER "ANSWER : (for Promotional Use Only)"
    INDEX 01 31:01:67

  TRACK 06 AUDIO
    TITLE "Introduction: BOMBAY CALLING"
    PERFORMER "IT'S A BEAUTIFUL DAY : It's a Beautiful Day"
    INDEX 01 45:09:15

  TRACK 07 AUDIO
    TITLE "Classic rock: DON AND DEWEY"
    PERFORMER "IT'S A BEAUTIFUL DAY : Marrying Maiden"
    INDEX 01 49:56:57


SEO [PR] おまとめローン 冷え性対策 坂本龍馬 動画掲示板 レンタルサーバー SEO