[ オンエアリストに戻る ]
TITLE "Heavy Metal Syndicate #948"
FILE "2009-04-12.mp3" WAVE
  TRACK 01 AUDIO
    TITLE "Reissue: GET UP AND GET DOWN (1979 Demo)"
    PERFORMER "MICHAEL SCHENKER GROUP : The Michael Schenker Group (2009 reissue)"
    INDEX 01 00:00:00

  TRACK 02 AUDIO
    TITLE "SITUATION"
    PERFORMER "GREAT WHITE : Rising"
    INDEX 01 12:44:67

  TRACK 03 AUDIO
    TITLE "PLAYGROUND"
    PERFORMER "ENUFF Z'NUFF : Dissonance"
    INDEX 01 18:52:50

  TRACK 04 AUDIO
    TITLE "LAVATORY LOVE MACHINE (Live 2006)"
    PERFORMER "EDGUY : Fucking with F*** - Live"
    INDEX 01 25:30:51

  TRACK 05 AUDIO
    TITLE "MASS MURDER"
    PERFORMER "BURNING HUMAN : Resurrection Through Fire"
    INDEX 01 31:46:23

  TRACK 06 AUDIO
    TITLE "Classic rock: LOST IN HOLLYWOOD"
    PERFORMER "RAINBOW : Down to Earth (Digitally remastered)"
    INDEX 01 51:36:68


SEO [PR] おまとめローン 冷え性対策 坂本龍馬 動画掲示板 レンタルサーバー SEO