[ オンエアリストに戻る ]
TITLE "Heavy Metal Syndicate #947"
FILE "2009-04-05.mp3" WAVE
  TRACK 01 AUDIO
    TITLE "Classic rock: HOLD ON (Glenn Hughes remix)"
    PERFORMER "DEEP PURPLE : Stormbringer (35th anniversary edition)"
    INDEX 01 00:00:00

  TRACK 02 AUDIO
    TITLE "NOT ENOUGH"
    PERFORMER "LACUNA COIL : Shallow Life"
    INDEX 01 11:30:24

  TRACK 03 AUDIO
    TITLE "BELIEVER"
    PERFORMER "PLACE VENDOME : Streets of Fire"
    INDEX 01 16:00:32

  TRACK 04 AUDIO
    TITLE "HOEDOWN (Live 1998)"
    PERFORMER "BOYS CLUB : Live from California"
    INDEX 01 23:19:74

  TRACK 05 AUDIO
    TITLE "A WHITER SHADE OF PALE (Live 1998)"
    PERFORMER "BOYS CLUB : Live from California"
    INDEX 01 27:34:71

  TRACK 06 AUDIO
    TITLE "PRESENCE OF THE LORD"
    PERFORMER "3 DOORS DOWN with SOUL CHILDREN OF CHICAGO : Oh Happy Day - All-Star Music Celebration (Compilation)"
    INDEX 01 36:01:14

  TRACK 07 AUDIO
    TITLE "Classic rock: ICE CREAM MAN"
    PERFORMER "VAN HALEN : Van Halen (Digitally remastered)"
    INDEX 01 50:59:57


SEO [PR] おまとめローン 冷え性対策 坂本龍馬 動画掲示板 レンタルサーバー SEO