[ オンエアリストに戻る ]
TITLE "Heavy Metal Syndicate #946"
FILE "2009-03-29.mp3" WAVE
  TRACK 01 AUDIO
    TITLE "BIBLE BLACK"
    PERFORMER "HEAVEN & HELL : The Devil You Know"
    INDEX 01 00:00:00

  TRACK 02 AUDIO
    TITLE "KEEP THE FAITH"
    PERFORMER "JON BON JOVI with THE WASHINGTON YOUTH CHOIR : Oh Happy Day - All-Star Music Celebration (Compilation)"
    INDEX 01 19:35:72

  TRACK 03 AUDIO
    TITLE "UNAFRAID"
    PERFORMER "QUEENSRYCHE : American Soldier"
    INDEX 01 25:46:45

  TRACK 04 AUDIO
    TITLE "BYE BYE BEAUTIFUL (Live 2008)"
    PERFORMER "NIGHTWISH : Made in Hong Kong (And in Various Other Places)"
    INDEX 01 32:02:38

  TRACK 05 AUDIO
    TITLE "SPELLBOUND"
    PERFORMER "LACUNA COIL : Shallow Life"
    INDEX 01 39:28:34

  TRACK 06 AUDIO
    TITLE "Classic rock: NEED YOUR LOVE SO BAD"
    PERFORMER "WHITESNAKE : Slide It In (American remix version)"
    INDEX 01 52:31:15


SEO [PR] おまとめローン 冷え性対策 坂本龍馬 動画掲示板 レンタルサーバー SEO