[ オンエアリストに戻る ]
TITLE "Heavy Metal Syndicate #945"
FILE "2009-03-22.mp3" WAVE
  TRACK 01 AUDIO
    TITLE "DOWN TO MEXICO (Live 2009)"
    PERFORMER "PAUL GILBERT AND FREDDIE NELSON : Official Bootleg - Tokyo 2"
    INDEX 01 00:00:00

  TRACK 02 AUDIO
    TITLE "Introduction: TIME OF THE SEASON"
    PERFORMER "ZOMBIES : Odessey and Oracle"
    INDEX 01 11:11:64

  TRACK 03 AUDIO
    TITLE "Introduction: HOLD YOUR HEAD UP"
    PERFORMER "ARGENT : All Together Now"
    INDEX 01 14:14:73

  TRACK 04 AUDIO
    TITLE "HOLD YOUR HEAD UP"
    PERFORMER "MR. BIG : Next Time Around - Best of Mr. Big"
    INDEX 01 16:52:01

  TRACK 05 AUDIO
    TITLE "INTO THE LIGHT"
    PERFORMER "PAPA ROACH : Metamorphosis"
    INDEX 01 21:37:26

  TRACK 06 AUDIO
    TITLE "ROLL AWAY"
    PERFORMER "ENUFF Z'NUFF : Dissonance"
    INDEX 01 25:26:32

  TRACK 07 AUDIO
    TITLE "GREED & VANITY"
    PERFORMER "CELESTY : Vendetta"
    INDEX 01 31:02:69

  TRACK 08 AUDIO
    TITLE "Classic rock: THUNDERSTEEL"
    PERFORMER "RIOT : Thundersteel"
    INDEX 01 51:32:37


SEO [PR] おまとめローン 冷え性対策 坂本龍馬 動画掲示板 レンタルサーバー SEO