[ オンエアリストに戻る ]
TITLE "Heavy Metal Syndicate #944"
FILE "2009-03-15.mp3" WAVE
  TRACK 01 AUDIO
    TITLE "NEXT TIME AROUND"
    PERFORMER "MR. BIG : Next Time Around - Best of Mr. Big"
    INDEX 01 00:00:00

  TRACK 02 AUDIO
    TITLE "INTO THE WAR"
    PERFORMER "GRAVE DIGGER : Ballads of a Hangman"
    INDEX 01 10:58:33

  TRACK 03 AUDIO
    TITLE "SPACE STATION #5"
    PERFORMER "RAVEN : Walk Through Fire"
    INDEX 01 15:03:08

  TRACK 04 AUDIO
    TITLE "INTO THE FUTURE"
    PERFORMER "REVOLUTION RENAISSANCE : Age of Aquarius"
    INDEX 01 19:46:01

  TRACK 05 AUDIO
    TITLE "STOCKHOLM SYNDROME"
    PERFORMER "GOD FORBID : Earthsblood"
    INDEX 01 25:25:66

  TRACK 06 AUDIO
    TITLE "HOME AGAIN"
    PERFORMER "QUEENSRYCHE : American Soldier"
    INDEX 01 32:10:68

  TRACK 07 AUDIO
    TITLE "SOMEBODY TO LOVE"
    PERFORMER "MXPX : On the Cover II"
    INDEX 01 37:05:17

  TRACK 08 AUDIO
    TITLE "Classic rock: RUN RUNAWAY"
    PERFORMER "SLADE : The Amazing Kamikaze Syndrome"
    INDEX 01 52:18:24


SEO [PR] おまとめローン 冷え性対策 坂本龍馬 動画掲示板 レンタルサーバー SEO