[ オンエアリストに戻る ]
TITLE "Heavy Metal Syndicate #943"
FILE "2009-03-08.mp3" WAVE
  TRACK 01 AUDIO
    TITLE "IF I WERE KING"
    PERFORMER "QUEENSRYCHE : American Soldier"
    INDEX 01 00:00:00

  TRACK 02 AUDIO
    TITLE "BEHIND THE MASK"
    PERFORMER "REVOLUTION RENAISSANCE : Age of Aquarius"
    INDEX 01 11:47:19

  TRACK 03 AUDIO
    TITLE "HIGH"
    PERFORMER "ENUFF Z'NUFF : Dissonance"
    INDEX 01 16:06:08

  TRACK 04 AUDIO
    TITLE "BALLAD OF A HANGMAN"
    PERFORMER "GRAVE DIGGER : Ballads of a Hangman"
    INDEX 01 21:27:42

  TRACK 05 AUDIO
    TITLE "FALLEN ANGEL"
    PERFORMER "MXPX : On the Cover II"
    INDEX 01 30:21:09

  TRACK 06 AUDIO
    TITLE "DADDY, BROTHER, LOVER, LITTLE BOY (THE ELECTRIC DRILL SONG) (Live 2009)"
    PERFORMER "MR. BIG : Live at the Hard Rock Cafe Tokyo, February 9, 2009 (for Promotional Use Only)"
    INDEX 01 36:53:70

  TRACK 07 AUDIO
    TITLE "Classic rock: GIRLSCHOOL"
    PERFORMER "BRITNY FOX : Britny Fox"
    INDEX 01 51:49:08


SEO [PR] おまとめローン 冷え性対策 坂本龍馬 動画掲示板 レンタルサーバー SEO