[ オンエアリストに戻る ]
TITLE "Heavy Metal Syndicate #942"
FILE "2009-03-01.mp3" WAVE
  TRACK 01 AUDIO
    TITLE "FOREVER ONE"
    PERFORMER "YNGWIE MALMSTEEN : Angels of Love"
    INDEX 01 00:00:00

  TRACK 02 AUDIO
    TITLE "Introduction: MALIBU BEACH NIGHTMARE"
    PERFORMER "HANOI ROCKS : Back to Mystery City"
    INDEX 01 17:52:35

  TRACK 03 AUDIO
    TITLE "MALIBU BEACH NIGHTMARE (CALYPSO)"
    PERFORMER "HANOI ROCKS : Ripped Off - Odd Tracks & Demos"
    INDEX 01 20:38:19

  TRACK 04 AUDIO
    TITLE "UNDER YOUR RADAR"
    PERFORMER "RAVEN : Walk Through Fire"
    INDEX 01 24:42:57

  TRACK 05 AUDIO
    TITLE "HIGH COST"
    PERFORMER "SCHUGAR/SCHENKER : Under Construction"
    INDEX 01 30:39:21

  TRACK 06 AUDIO
    TITLE "WAR OF ATTRITION"
    PERFORMER "GOD FORBID : Earthsblood"
    INDEX 01 35:15:07

  TRACK 07 AUDIO
    TITLE "Classic rock: CALL IT ROCK & ROLL"
    PERFORMER "GREAT WHITE : Hooked"
    INDEX 01 51:38:58


SEO [PR] おまとめローン 冷え性対策 坂本龍馬 動画掲示板 レンタルサーバー SEO