[ オンエアリストに戻る ]
TITLE "Heavy Metal Syndicate #941"
FILE "2009-02-22.mp3" WAVE
  TRACK 01 AUDIO
    TITLE "INTRO / AGAINST THE GRAIN"
    PERFORMER "RAVEN : Walk Through Fire"
    INDEX 01 00:00:00

  TRACK 02 AUDIO
    TITLE "HOLLYWOOD WHORE"
    PERFORMER "PAPA ROACH : Metamorphosis"
    INDEX 01 10:37:55

  TRACK 03 AUDIO
    TITLE "TAKE ON ME"
    PERFORMER "NORTHERN KINGS : Rethroned"
    INDEX 01 18:01:62

  TRACK 04 AUDIO
    TITLE "RIDING AND RULING"
    PERFORMER "MIND ODYSSEY : Time to Change It"
    INDEX 01 24:57:30

  TRACK 05 AUDIO
    TITLE "THE DISCOVERY / THE RAIN"
    PERFORMER "GOD FORBID : Earthsblood"
    INDEX 01 31:21:25

  TRACK 06 AUDIO
    TITLE "Request: GET IT ON"
    PERFORMER "T. REX : Electric Warrior"
    INDEX 01 50:45:72


SEO [PR] おまとめローン 冷え性対策 坂本龍馬 動画掲示板 レンタルサーバー SEO