[ オンエアリストに戻る ]
TITLE "Heavy Metal Syndicate #940"
FILE "2009-02-15.mp3" WAVE
  TRACK 01 AUDIO
    TITLE "GHOSTS"
    PERFORMER "IT BITES : The Tall Ships"
    INDEX 01 00:00:00

  TRACK 02 AUDIO
    TITLE "LIFELINE"
    PERFORMER "PAPA ROACH : Metamorphosis"
    INDEX 01 11:17:10

  TRACK 03 AUDIO
    TITLE "NO SACRIFICE, NO VICTORY"
    PERFORMER "HAMMERFALL : No Sacrifice, No Victory"
    INDEX 01 16:13:28

  TRACK 04 AUDIO
    TITLE "HOLLOW FACES"
    PERFORMER "HARMONY : Chapter II : Aftermath"
    INDEX 01 21:28:03

  TRACK 05 AUDIO
    TITLE "WONDERFUL LIFE"
    PERFORMER "IMPELLITTERI : Wicked Maiden"
    INDEX 01 25:26:56

  TRACK 06 AUDIO
    TITLE "OBLIVION"
    PERFORMER "MASTODON : Crack the Skye"
    INDEX 01 31:33:56

  TRACK 07 AUDIO
    TITLE "Classic rock: SOUTHERN WOMAN"
    PERFORMER "STYX : Man of Miracles (Digitally remastered)"
    INDEX 01 52:32:00


SEO [PR] おまとめローン 冷え性対策 坂本龍馬 動画掲示板 レンタルサーバー SEO