[ オンエアリストに戻る ]
TITLE "Heavy Metal Syndicate #939"
FILE "2009-02-08.mp3" WAVE
  TRACK 01 AUDIO
    TITLE "INNER PEACE"
    PERFORMER "HARMONY : Chapter II : Aftermath"
    INDEX 01 00:00:00

  TRACK 02 AUDIO
    TITLE "DESOLATION ROW"
    PERFORMER "MY CHEMICAL ROMANCE : Watchmen (Soundtrack)"
    INDEX 01 14:58:24

  TRACK 03 AUDIO
    TITLE "GARDEN OF EDEN"
    PERFORMER "IMPELLITTERI : Wicked Maiden"
    INDEX 01 19:20:17

  TRACK 04 AUDIO
    TITLE "ASHES"
    PERFORMER "FIVE FINGER DEATH PUNCH : The Way of the Fist (Remastered)"
    INDEX 01 27:14:49

  TRACK 05 AUDIO
    TITLE "FROZEN BY FIRE"
    PERFORMER "DEREK SHERINIAN : Molecular Heinosity"
    INDEX 01 33:29:39

  TRACK 06 AUDIO
    TITLE "Classic rock: RATS IN THE CELLAR"
    PERFORMER "AEROSMITH : Rocks (Blu-spec CD) (Digitally remastered, 1993)"
    INDEX 01 52:20:32


SEO [PR] おまとめローン 冷え性対策 坂本龍馬 動画掲示板 レンタルサーバー SEO