[ オンエアリストに戻る ]
TITLE "Heavy Metal Syndicate #938"
FILE "2009-02-01.mp3" WAVE
  TRACK 01 AUDIO
    TITLE "Message from Billy Sheehan"
    PERFORMER "MR. BIG"
    INDEX 01 00:00:00
  TRACK 02 AUDIO
    TITLE "Message from Eric Martin"
    PERFORMER "MR. BIG"
    INDEX 01 00:26:24
  TRACK 03 AUDIO
    TITLE "Message from Pat Torpey"
    PERFORMER "MR. BIG"
    INDEX 01 00:45:25
  TRACK 04 AUDIO
    TITLE "Message from Paul Gilbert"
    PERFORMER "MR. BIG"
    INDEX 01 00:59:74

  TRACK 05 AUDIO
    TITLE "Classic rock: STAY TOGETHER"
    PERFORMER "MR. BIG : Big Bigger Biggest! - The Best of Mr. Big"
    INDEX 01 01:15:39

  TRACK 06 AUDIO
    TITLE "AFTERMATH"
    PERFORMER "HARMONY : Chapter II : Aftermath"
    INDEX 01 23:13:43

  TRACK 07 AUDIO
    TITLE "NO SPELL"
    PERFORMER "RED JUMPSUIT APPARATUS : Lonely Road"
    INDEX 01 30:15:61

  TRACK 08 AUDIO
    TITLE "LIFE IS NOW"
    PERFORMER "HAMMERFALL : No Sacrifice, No Victory"
    INDEX 01 35:09:36

  TRACK 09 AUDIO
    TITLE "Classic rock: DUST IN THE WIND"
    PERFORMER "KANSAS : Always Never the Same (featuring the London Symphony Orchestra)"
    INDEX 01 52:22:62


SEO [PR] おまとめローン 冷え性対策 坂本龍馬 動画掲示板 レンタルサーバー SEO