[ オンエアリストに戻る ]
TITLE "Heavy Metal Syndicate #937"
FILE "2009-01-25.mp3" WAVE
  TRACK 01 AUDIO
    TITLE "VALLEY OF THE KINGS"
    PERFORMER "SAXON : Into the Labyrinth"
    INDEX 01 00:00:00

  TRACK 02 AUDIO
    TITLE "PUNISH AND ENSLAVE"
    PERFORMER "HAMMERFALL : No Sacrifice, No Victory"
    INDEX 01 16:49:28

  TRACK 03 AUDIO
    TITLE "LAST OF A DYING BREED"
    PERFORMER "IMPELLITTERI : Wicked Maiden"
    INDEX 01 21:04:68

  TRACK 04 AUDIO
    TITLE "Introduction: YOU SHOOK ME ALL NIGHT LONG / 真冬の大喜利大会 福袋で腰抜かせ"
    PERFORMER "AC/DC : Back in Black"
    INDEX 01 25:40:34

  TRACK 05 AUDIO
    TITLE "ESCALATION"
    PERFORMER "KREATOR : Hordes of Chaos"
    INDEX 01 43:19:61

  TRACK 06 AUDIO
    TITLE "Classic rock: BORSTAL BOYS"
    PERFORMER "FACES : Ooh La La"
    INDEX 01 52:51:60


SEO [PR] おまとめローン 冷え性対策 坂本龍馬 動画掲示板 レンタルサーバー SEO