[ オンエアリストに戻る ]
TITLE "Heavy Metal Syndicate #936"
FILE "2009-01-18.mp3" WAVE
  TRACK 01 AUDIO
    TITLE "DEMON SWEENEY TODD"
    PERFORMER "SAXON : Into the Labyrinth"
    INDEX 01 00:00:00

  TRACK 02 AUDIO
    TITLE "HI-SCOOL REVOLUTION"
    PERFORMER "IMPELLITTERI : Wicked Maiden"
    INDEX 01 10:40:28

  TRACK 03 AUDIO
    TITLE "MY WAY"
    PERFORMER "NORTHERN KINGS : Rethroned"
    INDEX 01 16:24:51

  TRACK 04 AUDIO
    TITLE "THERE FOR YOU"
    PERFORMER "H.E.A.T : H.e.a.t"
    INDEX 01 23:11:44

  TRACK 05 AUDIO
    TITLE "HEAVEN SENT"
    PERFORMER "HINDER : Take It to the Limit"
    INDEX 01 27:49:15

  TRACK 06 AUDIO
    TITLE "CATCH ME IF YOU CAN"
    PERFORMER "LEATHERMOUTH : XO"
    INDEX 01 35:01:04

  TRACK 07 AUDIO
    TITLE "Classic rock: BLINDED"
    PERFORMER "QUEENSRYCHE : Queensryche (EP) (Digitally remastered)"
    INDEX 01 52:56:22


SEO [PR] おまとめローン 冷え性対策 坂本龍馬 動画掲示板 レンタルサーバー SEO