[ オンエアリストに戻る ]
TITLE "Heavy Metal Syndicate #935"
FILE "2009-01-11.mp3" WAVE
  TRACK 01 AUDIO
    TITLE "DEMON EYES"
    PERFORMER "ANSWER : Everyday Demons"
    INDEX 01 00:00:00

  TRACK 02 AUDIO
    TITLE "WICKED MAIDEN"
    PERFORMER "IMPELLITTERI : Wicked Maiden"
    INDEX 01 10:11:54

  TRACK 03 AUDIO
    TITLE "WANTED DEAD OR ALIVE"
    PERFORMER "NORTHERN KINGS : Rethroned"
    INDEX 01 16:39:73

  TRACK 04 AUDIO
    TITLE "YOU BETTER PRAY"
    PERFORMER "RED JUMPSUIT APPARATUS : Lonely Road"
    INDEX 01 22:32:61

  TRACK 05 AUDIO
    TITLE "I WANNA LIVE"
    PERFORMER "TESLA : Forever More"
    INDEX 01 26:32:33

  TRACK 06 AUDIO
    TITLE "PARADOX"
    PERFORMER "SEPULTURA : A-Lex"
    INDEX 01 31:58:25

  TRACK 07 AUDIO
    TITLE "WORK TO RULE"
    PERFORMER "NAPALM DEATH : Time Waits for No Slave"
    INDEX 01 35:54:63

  TRACK 08 AUDIO
    TITLE "Classic rock: CUM ON FEEL THE NOIZE"
    PERFORMER "QUIET RIOT : Metal Health (Digitally remastered)"
    INDEX 01 51:09:38


SEO [PR] おまとめローン 冷え性対策 坂本龍馬 動画掲示板 レンタルサーバー SEO