[ オンエアリストに戻る ]
TITLE "Heavy Metal Syndicate #934 - NWOBHM30周年記念"
FILE "2009-01-04.mp3" WAVE
  TRACK 01 AUDIO
    TITLE "Introduction: 春の海"
    PERFORMER "箏:宮城道雄 尺八:吉田晴風 : 春の海 (single)"
    INDEX 01 00:00:00

  TRACK 02 AUDIO
    TITLE "Classic rock: RUNNING FREE"
    PERFORMER "IRON MAIDEN : Iron Maiden"
    INDEX 01 05:18:54

  TRACK 03 AUDIO
    TITLE "Classic rock: ANGEL WITCH"
    PERFORMER "ANGEL WITCH : Angel Witch"
    INDEX 01 09:58:46

  TRACK 04 AUDIO
    TITLE "Classic rock: PRINCESS OF THE NIGHT"
    PERFORMER "SAXON : Denim and Leather"
    INDEX 01 15:15:70

  TRACK 05 AUDIO
    TITLE "Classic rock: EYE OF THE STORM"
    PERFORMER "SWEET SAVAGE : The Friday Rock Show (Compilation)"
    INDEX 01 21:39:30

  TRACK 06 AUDIO
    TITLE "Classic rock: DON'T NEED YOUR MONEY"
    PERFORMER "RAVEN : Rock until You Drop"
    INDEX 01 26:17:40

  TRACK 07 AUDIO
    TITLE "Classic rock: GANGLAND"
    PERFORMER "TYGERS OF PAN TANG : Spellbound"
    INDEX 01 34:25:10

  TRACK 08 AUDIO
    TITLE "Classic rock: THIRTY PIECES OF SILVER"
    PERFORMER "PRAYING MANTIS : Cheated (single)"
    INDEX 01 51:35:65


SEO [PR] おまとめローン 冷え性対策 坂本龍馬 動画掲示板 レンタルサーバー SEO