[ オンエアリストに戻る ]
TITLE "Heavy Metal Syndicate #933"
FILE "2008-12-28.mp3" WAVE
  TRACK 01 AUDIO
    TITLE "ONE DAY AT A TIME"
    PERFORMER "TESLA : Forever More"
    INDEX 01 00:00:00

  TRACK 02 AUDIO
    TITLE "LOADED AND ALONE"
    PERFORMER "HINDER : Take It to the Limit"
    INDEX 01 08:28:39

  TRACK 03 AUDIO
    TITLE "MOLOKO MESTO"
    PERFORMER "SEPULTURA : A-Lex"
    INDEX 01 13:43:30

  TRACK 04 AUDIO
    TITLE "HEREAFTER"
    PERFORMER "DGM : FrAme"
    INDEX 01 18:01:61

  TRACK 05 AUDIO
    TITLE "THE STREETS OF LAUDOMIA"
    PERFORMER "VISION DIVINE : 9 Degrees West of the Moon"
    INDEX 01 23:36:60

  TRACK 06 AUDIO
    TITLE "STRONG-ARM"
    PERFORMER "NAPALM DEATH : Time Waits for No Slave"
    INDEX 01 31:48:60

  TRACK 07 AUDIO
    TITLE "Classic rock: (DON'T FEAR) THE REAPER (Live 1978)"
    PERFORMER "BLUE OYSTER CULT : Some Enchanted Evening (Digitally remastered)"
    INDEX 01 50:23:33


SEO [PR] おまとめローン 冷え性対策 坂本龍馬 動画掲示板 レンタルサーバー SEO