[ オンエアリストに戻る ]
TITLE "Heavy Metal Syndicate #932"
FILE "2008-12-21.mp3" WAVE
  TRACK 01 AUDIO
    TITLE "BLACKENED (Live 2008)"
    PERFORMER "METALLICA : All Nightmare Long (EP)"
    INDEX 01 00:00:00

  TRACK 02 AUDIO
    TITLE "FOREVER"
    PERFORMER "IN THIS MOMENT : The Dream"
    INDEX 01 18:50:09

  TRACK 03 AUDIO
    TITLE "NUT ROCKER (Live at Lyceum December 9th 1970)"
    PERFORMER "EMERSON, LAKE & PALMER : Pictures at an Exhibition (Deluxe edition)"
    INDEX 01 27:19:69

  TRACK 04 AUDIO
    TITLE "MAN OF THE HOUR"
    PERFORMER "FALCONER : Among Beggars and Thieves"
    INDEX 01 33:49:03

  TRACK 05 AUDIO
    TITLE "Classic rock: SHA-LA-LA-LA-LEE"
    PERFORMER "SMALL FACES : Small Faces"
    INDEX 01 51:52:27


SEO [PR] おまとめローン 冷え性対策 坂本龍馬 動画掲示板 レンタルサーバー SEO