[ オンエアリストに戻る ]
TITLE "Heavy Metal Syndicate #931"
FILE "2008-12-14.mp3" WAVE
  TRACK 01 AUDIO
    TITLE "ON AND ON"
    PERFORMER "ANSWER : Everyday Demons"
    INDEX 01 00:00:00

  TRACK 02 AUDIO
    TITLE "SEEK AND DESTROY (Live 2008)"
    PERFORMER "METALLICA : All Nightmare Long (EP)"
    INDEX 01 09:47:40

  TRACK 03 AUDIO
    TITLE "USE ME"
    PERFORMER "HINDER : Take It to the Limit"
    INDEX 01 20:45:37

  TRACK 04 AUDIO
    TITLE "LIGHTS OUT"
    PERFORMER "EVIL MASQUERADE : Fade to Black"
    INDEX 01 25:34:69

  TRACK 05 AUDIO
    TITLE "MAKE ME A BELIEVER"
    PERFORMER "JIMI JAMISON : Crossroads Moment"
    INDEX 01 33:13:39

  TRACK 06 AUDIO
    TITLE "Classic rock: POWERLOVE"
    PERFORMER "LION : Dangerous Attraction"
    INDEX 01 51:40:06


SEO [PR] おまとめローン 冷え性対策 坂本龍馬 動画掲示板 レンタルサーバー SEO