[ オンエアリストに戻る ]
TITLE "Heavy Metal Syndicate #930"
FILE "2008-12-07.mp3" WAVE
  TRACK 01 AUDIO
    TITLE "TAKE IT TO THE LIMIT"
    PERFORMER "HINDER : Take It to the Limit (feat. Mick Mars)"
    INDEX 01 00:00:00

  TRACK 02 AUDIO
    TITLE "HELLO, HELLO, HELLO"
    PERFORMER "LAST AUTUMN'S DREAM : Dreamcatcher"
    INDEX 01 12:49:69

  TRACK 03 AUDIO
    TITLE "WORLDSHAKER"
    PERFORMER "HANOI ROCKS : This One's for Rock'n'roll - The Best of Hanoi Rocks 1980-2008"
    INDEX 01 17:52:01

  TRACK 04 AUDIO
    TITLE "MASTER OF PUPPETS (Live 2008)"
    PERFORMER "METALLICA : All Nightmare Long (EP)"
    INDEX 01 23:35:14

  TRACK 05 AUDIO
    TITLE "RIFFOLA"
    PERFORMER "HONEYMOON SUITE : Clifton Hill"
    INDEX 01 33:44:51

  TRACK 06 AUDIO
    TITLE "Classic rock: SPACE STATION #5"
    PERFORMER "MONTROSE : Montrose"
    INDEX 01 50:05:71


SEO [PR] おまとめローン 冷え性対策 坂本龍馬 動画掲示板 レンタルサーバー SEO