[ オンエアリストに戻る ]
TITLE "Heavy Metal Syndicate #929"
FILE "2008-11-30.mp3" WAVE
  TRACK 01 AUDIO
    TITLE "GRIN AND BEAR IT"
    PERFORMER "HANOI ROCKS : This One's for Rock'n'roll - The Best of Hanoi Rocks 1980-2008"
    INDEX 01 00:00:00

  TRACK 02 AUDIO
    TITLE "WELCOME / ONE BY ONE"
    PERFORMER "LAST AUTUMN'S DREAM : Dreamcatcher"
    INDEX 01 15:26:53

  TRACK 03 AUDIO
    TITLE "SHE AIN'T ALRIGHT"
    PERFORMER "HONEYMOON SUITE : Clifton Hill"
    INDEX 01 24:03:46

  TRACK 04 AUDIO
    TITLE "HIGHWATER OR HELL"
    PERFORMER "ANSWER : Never Too Late (American EP)"
    INDEX 01 29:03:64

  TRACK 05 AUDIO
    TITLE "Introduction: PIANO SOLO"
    PERFORMER "VALENTINE : Androgenius"
    INDEX 01 34:09:49

  TRACK 06 AUDIO
    TITLE "THE MAGIC BREEZE 2008"
    PERFORMER "VALENTINE : Androgenius"
    INDEX 01 36:07:29

  TRACK 07 AUDIO
    TITLE "I BELIEVE IN FATHER CHRISTMAS"
    PERFORMER "SARAH BRIGHTMAN : A Winter Symphony"
    INDEX 01 52:27:44


SEO [PR] おまとめローン 冷え性対策 坂本龍馬 動画掲示板 レンタルサーバー SEO