[ オンエアリストに戻る ]
TITLE "Heavy Metal Syndicate #928"
FILE "2008-11-23.mp3" WAVE
  TRACK 01 AUDIO
    TITLE "STREET OF DREAMS"
    PERFORMER "GUNS N' ROSES : Chinese Democracy"
    INDEX 01 00:00:00

  TRACK 02 AUDIO
    TITLE "DEATH ALLEY DRIVER (Live 2007)"
    PERFORMER "JOE LYNN TURNER : Live in Germany"
    INDEX 01 10:58:34

  TRACK 03 AUDIO
    TITLE "THOR (THE POWERHEAD) (Live 2007)"
    PERFORMER "THERION : Live Gothic"
    INDEX 01 16:49:68

  TRACK 04 AUDIO
    TITLE "SLEEPING WITH THE ENEMY"
    PERFORMER "CINDER ROAD : Superhuman"
    INDEX 01 23:10:47

  TRACK 05 AUDIO
    TITLE "HOUSE OF FUN"
    PERFORMER "D-A-D : Monster Philosophy"
    INDEX 01 26:47:62

  TRACK 06 AUDIO
    TITLE "Introduction: HELLS BELLS / 真冬の大喜利大会 福袋で腰抜かせ (問題発表)"
    PERFORMER "AC/DC : Back in Black"
    INDEX 01 31:42:34

  TRACK 07 AUDIO
    TITLE "Classic rock: TUSH"
    PERFORMER "ZZ TOP : Fandango!"
    INDEX 01 54:07:08


SEO [PR] おまとめローン 冷え性対策 坂本龍馬 動画掲示板 レンタルサーバー SEO