[ オンエアリストに戻る ]
TITLE "Heavy Metal Syndicate #927"
FILE "2008-11-16.mp3" WAVE
  TRACK 01 AUDIO
    TITLE "THE PRIDE OF CREATION"
    PERFORMER "EDGUY : Tinnitus Sanctus"
    INDEX 01 00:00:00

  TRACK 02 AUDIO
    TITLE "CHAINSAW"
    PERFORMER "D-A-D : Monster Philosophy"
    INDEX 01 13:57:13

  TRACK 03 AUDIO
    TITLE "CRASH & BURN"
    PERFORMER "SINNER : Crash & Burn"
    INDEX 01 18:33:62

  TRACK 04 AUDIO
    TITLE "EMPRESS (Live 2008)"
    PERFORMER "GAMMA RAY : Hell Yeah!!!"
    The Awesome Foursome (and the Finnish Keyboarder Who Didn't Want to Wear His Donald Duck Costume) - Live in Montreal
    INDEX 01 24:40:49

  TRACK 05 AUDIO
    TITLE "ENEMY WITHIN (Live 2008)"
    PERFORMER "ARCH ENEMY : Tyrants of the Rising Sun"
    INDEX 01 30:39:54

  TRACK 06 AUDIO
    TITLE "CAUSE WE'VE ENDED AS LOVERS (Live 2007)"
    PERFORMER "JEFF BECK : Performing This Week... Live at Ronnie Scott's"
    INDEX 01 50:40:55


SEO [PR] おまとめローン 冷え性対策 坂本龍馬 動画掲示板 レンタルサーバー SEO