[ オンエアリストに戻る ]
TITLE "Heavy Metal Syndicate #926"
FILE "2008-11-09.mp3" WAVE
  TRACK 01 AUDIO
    TITLE "MINISTRY OF SAINTS"
    PERFORMER "EDGUY : Tinnitus Sanctus"
    INDEX 01 00:00:00

  TRACK 02 AUDIO
    TITLE "BAD EXCUSE"
    PERFORMER "CINDER ROAD : Superhuman"
    INDEX 01 09:45:49

  TRACK 03 AUDIO
    TITLE "FIGHT (Live 2006)"
    PERFORMER "GAMMA RAY : Hell Yeah!!!"
    The Awesome Foursome (and the Finnish Keyboarder Who Didn't Want to Wear His Donald Duck Costume) - Live in Montreal
    INDEX 01 16:19:03

  TRACK 04 AUDIO
    TITLE "THE FALLING STONE (Live 2007)"
    PERFORMER "THERION : Live Gothic"
    INDEX 01 19:44:58

  TRACK 05 AUDIO
    TITLE "RAVENOUS (Live 2008)"
    PERFORMER "ARCH ENEMY : Tyrants of the Rising Sun"
    INDEX 01 23:51:60

  TRACK 06 AUDIO
    TITLE "BEAUTIFUL TOGETHER"
    PERFORMER "D-A-D : Monster Philosophy"
    INDEX 01 29:57:16

  TRACK 07 AUDIO
    TITLE "Classic rock: AIN'T GONNA CRY NO MORE"
    PERFORMER "WHITESNAKE : Ready an' Willing (Digitally remastered)"
    INDEX 01 48:12:35


SEO [PR] おまとめローン 冷え性対策 坂本龍馬 動画掲示板 レンタルサーバー SEO