[ オンエアリストに戻る ]
TITLE "Heavy Metal Syndicate #925"
FILE "2008-11-02.mp3" WAVE
  TRACK 01 AUDIO
    TITLE "CHINESE DEMOCRACY"
    PERFORMER "GUNS N' ROSES : Chinese Democracy"
    INDEX 01 00:00:00

  TRACK 02 AUDIO
    TITLE "CANDY MAN"
    PERFORMER "THUNDER : Bang!"
    INDEX 01 13:55:60

  TRACK 03 AUDIO
    TITLE "DOMINATOR"
    PERFORMER "DREAM EVIL : Gold Medal in Metal"
    INDEX 01 20:31:14

  TRACK 04 AUDIO
    TITLE "PHANTOM QUEEN"
    PERFORMER "DARK MOOR : Autumnal"
    INDEX 01 24:27:35

  TRACK 05 AUDIO
    TITLE "THIS FALL"
    PERFORMER "JOSEPH WILLIAMS : This Fall"
    INDEX 01 30:46:12

  TRACK 06 AUDIO
    TITLE "Classic rock: ANOTHER PIECE OF MEAT"
    PERFORMER "SCORPIONS : Lovedrive (Digitally remastered)"
    INDEX 01 50:01:16


SEO [PR] おまとめローン 冷え性対策 坂本龍馬 動画掲示板 レンタルサーバー SEO