[ オンエアリストに戻る ]
TITLE "Heavy Metal Syndicate #924"
FILE "2008-10-26.mp3" WAVE
  TRACK 01 AUDIO
    TITLE "RED DEVIL"
    PERFORMER "YNGWIE MALMSTEEN'S RISING FORCE : Perpetual Flame"
    INDEX 01 00:00:00

  TRACK 02 AUDIO
    TITLE "HONEY"
    PERFORMER "THUNDER : Bang!"
    INDEX 01 19:08:54

  TRACK 03 AUDIO
    TITLE "CHAOS DWELLS WITHIN"
    PERFORMER "WINTERBORN : Farewell to Saints"
    INDEX 01 24:51:12

  TRACK 04 AUDIO
    TITLE "ABSOLUTION"
    PERFORMER "DARKANE : Demonic Art"
    INDEX 01 31:14:63

  TRACK 05 AUDIO
    TITLE "Classic rock: HIGHWAY SONG (Live 1983)"
    PERFORMER "BLACKFOOT : King Biscuit Flower Hour"
    INDEX 01 45:53:44


SEO [PR] おまとめローン 冷え性対策 坂本龍馬 動画掲示板 レンタルサーバー SEO