[ オンエアリストに戻る ]
TITLE "Heavy Metal Syndicate #923"
FILE "2008-10-19.mp3" WAVE
  TRACK 01 AUDIO
    TITLE "DEATH DEALER"
    PERFORMER "YNGWIE MALMSTEEN'S RISING FORCE : Perpetual Flame"
    INDEX 01 00:00:00

  TRACK 02 AUDIO
    TITLE "ON THE RADIO"
    PERFORMER "THUNDER : Bang!"
    INDEX 01 10:46:14

  TRACK 03 AUDIO
    TITLE "WAR MACHINE"
    PERFORMER "AC/DC : Black Ice"
    INDEX 01 16:30:51

  TRACK 04 AUDIO
    TITLE "MONSTER"
    PERFORMER "METAL CHURCH : This Present Wasteland"
    INDEX 01 21:06:07

  TRACK 05 AUDIO
    TITLE "I'M A WARRIOR"
    PERFORMER "DRIVER : Sons of Thunder"
    INDEX 01 27:40:12

  TRACK 06 AUDIO
    TITLE "VARIATIONS OF AN EYE CRUSH / LEAVING EXISTENCE"
    PERFORMER "DARKANE : Demonic Art"
    INDEX 01 33:26:12

  TRACK 07 AUDIO
    TITLE "Classic rock: WAITING FOR A GIRL LIKE YOU"
    PERFORMER "FOREIGNER : 4 (Digitally remastered)"
    INDEX 01 51:44:47


SEO [PR] おまとめローン 冷え性対策 坂本龍馬 動画掲示板 レンタルサーバー SEO