[ オンエアリストに戻る ]
TITLE "Heavy Metal Syndicate #922"
FILE "2008-10-12.mp3" WAVE
  TRACK 01 AUDIO
    TITLE "ANYTHING GOES"
    PERFORMER "AC/DC : Black Ice"
    INDEX 01 00:00:00

  TRACK 02 AUDIO
    TITLE "ROAD TO NOWHERE"
    PERFORMER "SHADOWMAN : Ghost in the Mirror"
    INDEX 01 12:31:31

  TRACK 03 AUDIO
    TITLE "STORMWATER"
    PERFORMER "THUNDER : Bang!"
    INDEX 01 16:53:35

  TRACK 04 AUDIO
    TITLE "I'M SO SORRY"
    PERFORMER "CINDER ROAD : Superhuman"
    INDEX 01 23:33:59

  TRACK 05 AUDIO
    TITLE "THE ANSWER"
    PERFORMER "PAUL GILBERT & FREDDIE NELSON : United States"
    INDEX 01 27:21:22

  TRACK 06 AUDIO
    TITLE "SONS OF THUNDER"
    PERFORMER "DRIVER : Sons of Thunder"
    INDEX 01 33:32:21

  TRACK 07 AUDIO
    TITLE "MONSTER PHILOSOPHY"
    PERFORMER "D-A-D : Monster Philosophy"
    INDEX 01 50:24:39


SEO [PR] おまとめローン 冷え性対策 坂本龍馬 動画掲示板 レンタルサーバー SEO