[ オンエアリストに戻る ]
TITLE "Heavy Metal Syndicate #921"
FILE "2008-10-05.mp3" WAVE
  TRACK 01 AUDIO
    TITLE "MASS HYSTERIA"
    PERFORMER "METAL CHURCH : This Present Wasteland"
    INDEX 01 00:00:00

  TRACK 02 AUDIO
    TITLE "PULSAR"
    PERFORMER "PAUL GILBERT & FREDDIE NELSON : United States"
    INDEX 01 13:18:60

  TRACK 03 AUDIO
    TITLE "A LIT'L BIT'L DO IT TO 'YA EV'RY TIME"
    PERFORMER "BILLY SHEEHAN : Holy Cow!"
    INDEX 01 17:41:51

  TRACK 04 AUDIO
    TITLE "DON'T STOP BELIEVIN'"
    PERFORMER "JOURNEY : Revelation"
    INDEX 01 25:02:04

  TRACK 05 AUDIO
    TITLE "USA FOR SATAN"
    PERFORMER "VENOM : Hell"
    INDEX 01 33:21:35

  TRACK 06 AUDIO
    TITLE "Classic rock: GREEN-TINTED SIXTIES MIND (Live 1991)"
    PERFORMER "MR. BIG : Live"
    INDEX 01 52:24:74


SEO [PR] おまとめローン 冷え性対策 坂本龍馬 動画掲示板 レンタルサーバー SEO