[ オンエアリストに戻る ]
TITLE "Heavy Metal Syndicate #920"
FILE "2008-09-28.mp3" WAVE
  TRACK 01 AUDIO
    TITLE "WASTE OF TIME"
    PERFORMER "PAUL GILBERT & FREDDIE NELSON : United States"
    INDEX 01 00:00:00

  TRACK 02 AUDIO
    TITLE "Introduction: A SONG FOR YOU / ゲスト: カンニング竹山さん"
    PERFORMER "LEON RUSSELL : Leon Russell"
    INDEX 01 13:41:01

  TRACK 03 AUDIO
    TITLE "Classic rock: ACES HIGH"
    PERFORMER "IRON MAIDEN : Powerslave"
    INDEX 01 41:53:69

  TRACK 04 AUDIO
    TITLE "Classic rock: THE WORLD ANTHEM (Live 1978)"
    PERFORMER "FRANK MARINO & MAHOGANY RUSH : Live"
    INDEX 01 53:24:03


SEO [PR] おまとめローン 冷え性対策 坂本龍馬 動画掲示板 レンタルサーバー SEO